General

Unique ID : 95765225162843623384675803714347751749 (0x480BB6235ED79B9C83D109A9E3F65945)
Complete name : /home/30nama/movies/t/Tokio_2008_1080p_BluRay_DTS_FGT_30NAMA.mkv
Format : Matroska
Format version : Version 4
File size : 10.2 GiB
Duration : 1 h 51 min
Overall bit rate : 13.0 Mb/s
Movie name : Tokyo.2008.JAPANESE.1080p.BluRay.x264.DTS-FGT
Encoded date : UTC 2020-03-18 21:01:57
Writing application : mkvmerge v43.0.0 ('The Quartermaster') 64-bit
Writing library : libebml v1.3.10 + libmatroska v1.5.2
Cover : Yes
Attachments : small_cover.jpg / small_cover_land.jpg / cover.jpg / cover_land.jpg

Video

ID : 1
Format : AVC
Format/Info : Advanced Video Codec
Format profile : High@L4.1
Format settings : CABAC / 4 Ref Frames
Format settings, CABAC : Yes
Format settings, ReFrames : 4 frames
Codec ID : V_MPEG4/ISO/AVC
Duration : 1 h 51 min
Bit rate : 11.5 Mb/s
Width : 1 914 pixels
Height : 1 032 pixels
Display aspect ratio : 1.85:1
Frame rate mode : Constant
Frame rate : 24.000 FPS
Color space : YUV
Chroma subsampling : 4:2:0
Bit depth : 8 bits
Scan type : Progressive
Bits/(Pixel*Frame) : 0.243
Stream size : 8.97 GiB (88%)
Title : Tokyo.2008.JAPANESE.1080p.BluRay.x264.DTS-FGT
Writing library : x264 core 148 r2748 97eaef2
Encoding settings : cabac=1 / ref=4 / deblock=1:-2:-2 / analyse=0x3:0x113 / me=umh / subme=9 / psy=1 / psy_rd=1.00:0.15 / mixed_ref=1 / me_range=16 / chroma_me=1 / trellis=2 / 8x8dct=1 / cqm=0 / deadzone=21,11 / fast_pskip=1 / chroma_qp_offset=-3 / threads=24 / lookahead_threads=3 / sliced_threads=0 / nr=0 / decimate=1 / interlaced=0 / bluray_compat=0 / constrained_intra=0 / bframes=3 / b_pyramid=2 / b_adapt=1 / b_bias=0 / direct=3 / weightb=1 / open_gop=0 / weightp=2 / keyint=250 / keyint_min=25 / scenecut=40 / intra_refresh=0 / rc_lookahead=50 / rc=2pass / mbtree=1 / bitrate=11500 / ratetol=1.0 / qcomp=0.60 / qpmin=0 / qpmax=69 / qpstep=4 / cplxblur=20.0 / qblur=0.5 / vbv_maxrate=31250 / vbv_bufsize=31250 / nal_hrd=none / filler=0 / ip_ratio=1.40 / aq=1:1.00
Language : Japanese
Default : Yes
Forced : No

Audio

ID : 2
Format : DTS
Format/Info : Digital Theater Systems
Codec ID : A_DTS
Duration : 1 h 51 min
Bit rate mode : Constant
Bit rate : 1 509 kb/s
Channel(s) : 6 channels
Channel layout : C L R Ls Rs LFE
Sampling rate : 48.0 kHz
Frame rate : 93.750 FPS (512 SPF)
Bit depth : 24 bits
Compression mode : Lossy
Stream size : 1.18 GiB (12%)
Title : Tokyo.2008.JAPANESE.1080p.BluRay.x264.DTS-FGT
Language : Japanese
Default : Yes
Forced : No

Text

ID : 3
Format : UTF-8
Codec ID : S_TEXT/UTF8
Codec ID/Info : UTF-8 Plain Text
Duration : 1 h 43 min
Bit rate : 25 b/s
Count of elements : 729
Stream size : 19.2 KiB (0%)
Language : English
Default : Yes
Forced : No

Menu

00:00:00.000 : en:??? 01 ???
00:07:39.583 : en:??? 02 ???
00:16:18.583 : en:??? 03 ???
00:21:42.583 : en:??? 04 ???
00:27:08.083 : en:??? 05 ???
00:33:35.083 : en:??? 06 ???
00:37:34.083 : en:??? 07 ???
00:49:27.083 : en:??? 08 ???
00:53:08.083 : en:??? 09 ???
00:59:32.583 : en:??? 10 ???
01:07:31.583 : en:??? 11 ???
01:10:47.583 : en:??? 12 ???
01:16:01.583 : en:??? 13 ???
01:21:34.583 : en:??? 14 ???
01:28:44.083 : en:??? 15 ???
01:33:05.583 : en:??? 16 ???
01:37:57.083 : en:??? 17 ???
01:41:25.583 : en:??? 18 ???