General

Unique ID : 201651167118341737311817957149469371638 (0x97B49A23B5A6DEEB85E0E10001B8ECF6)
Complete name : /home/30nama/movies/s/Spiral_From_the_Book_of_Saw_2021_HDR_2160p_x265_WEB-DL_5.1CH_CMRG_30NAMA.mkv
Format : Matroska
Format version : Version 4
File size : 9.94 GiB
Duration : 1 h 33 min
Overall bit rate : 15.3 Mb/s
Movie name : Spiral.From.the.Book.of.Saw.2021.CMRG
Encoded date : UTC 2021-06-01 01:09:18
Writing application : mkvmerge v11.0.0 ('Alive') 64bit
Writing library : libebml v1.3.4 + libmatroska v1.4.5

Video

ID : 1
Format : HEVC
Format/Info : High Efficiency Video Coding
Commercial name : HDR10
Format profile : Main 10@L5@Main
Codec ID : V_MPEGH/ISO/HEVC
Duration : 1 h 33 min
Bit rate : 14.6 Mb/s
Width : 3 840 pixels
Height : 1 600 pixels
Display aspect ratio : 2.40:1
Frame rate mode : Constant
Frame rate : 23.976 (24000/1001) FPS
Color space : YUV
Chroma subsampling : 4:2:0
Bit depth : 10 bits
Bits/(Pixel*Frame) : 0.099
Stream size : 9.52 GiB (96%)
Default : Yes
Forced : No
Color range : Limited
Color primaries : BT.2020
Transfer characteristics : PQ
Matrix coefficients : BT.2020 non-constant
Mastering display color primaries : Display P3
Mastering display luminance : min: 0.0050 cd/m2, max: 1000 cd/m2
Maximum Content Light Level : 907 cd/m2
Maximum Frame-Average Light Level : 185 cd/m2

Audio

ID : 2
Format : E-AC-3
Format/Info : Enhanced AC-3
Commercial name : Dolby Digital Plus
Codec ID : A_EAC3
Duration : 1 h 33 min
Bit rate mode : Constant
Bit rate : 640 kb/s
Channel(s) : 6 channels
Channel layout : L R C LFE Ls Rs
Sampling rate : 48.0 kHz
Frame rate : 31.250 FPS (1536 SPF)
Compression mode : Lossy
Stream size : 426 MiB (4%)
Title : English
Language : English
Service kind : Complete Main
Default : No
Forced : No

Text #1

ID : 3
Format : UTF-8
Codec ID : S_TEXT/UTF8
Codec ID/Info : UTF-8 Plain Text
Duration : 1 h 26 min
Bit rate : 67 b/s
Count of elements : 1440
Stream size : 42.6 KiB (0%)
Title : English [SDH]
Language : English
Default : No
Forced : No

Text #2

ID : 4
Format : UTF-8
Codec ID : S_TEXT/UTF8
Codec ID/Info : UTF-8 Plain Text
Duration : 1 h 25 min
Bit rate : 61 b/s
Count of elements : 1271
Stream size : 38.3 KiB (0%)
Title : English
Language : English
Default : No
Forced : No