General

Unique ID : 257048511564946016319738174448807238934 (0xC161BE184D28106FD1FB7FCD5D08DD16)
Complete name : /home/30nama/movies/r/RoboCop_2014_10bit_1080p_x265_BDRip_5.1CH_TAoE_30NAMA.mkv
Format : Matroska
Format version : Version 4
File size : 3.85 GiB
Duration : 1 h 57 min
Overall bit rate : 4 687 kb/s
Writing application : Lavf58.29.100
Writing library : Lavf58.29.100
ErrorDetectionType : Per level 1

Video

ID : 1
Format : HEVC
Format/Info : High Efficiency Video Coding
Format profile : Main 10@L4@Main
Codec ID : V_MPEGH/ISO/HEVC
Duration : 1 h 57 min
Bit rate : 3 820 kb/s
Width : 1 920 pixels
Height : 1 080 pixels
Display aspect ratio : 16:9
Frame rate mode : Variable
Frame rate : 23.976 FPS
Color space : YUV
Chroma subsampling : 4:2:0
Bit depth : 10 bits
Bits/(Pixel*Frame) : 0.077
Stream size : 3.13 GiB (81%)
Title : Encoded by r0b0t for TAoE
Writing library : x265 3.2+35-acc5d16999e2:[Windows][GCC 9.2.1][64 bit] 10bit
Encoding settings : cpuid=1049583 / frame-threads=5 / numa-pools=16,16 / wpp / no-pmode / no-pme / no-psnr / no-ssim / log-level=2 / input-csp=1 / input-res=1920x1080 / interlace=0 / total-frames=0 / level-idc=0 / high-tier=1 / uhd-bd=0 / ref=4 / no-allow-non-conformance / no-repeat-headers / annexb / no-aud / no-hrd / info / hash=0 / no-temporal-layers / open-gop / min-keyint=23 / keyint=250 / gop-lookahead=0 / bframes=8 / b-adapt=2 / b-pyramid / bframe-bias=0 / rc-lookahead=80 / lookahead-slices=4 / scenecut=40 / hist-scenecut=0 / radl=0 / no-splice / no-intra-refresh / ctu=64 / min-cu-size=8 / no-rect / no-amp / max-tu-size=32 / tu-inter-depth=1 / tu-intra-depth=1 / limit-tu=0 / rdoq-level=2 / dynamic-rd=0.00 / no-ssim-rd / signhide / no-tskip / nr-intra=0 / nr-inter=0 / no-constrained-intra / no-strong-intra-smoothing / max-merge=3 / limit-refs=3 / limit-modes / me=3 / subme=5 / merange=57 / temporal-mvp / no-frame-dup / no-hme / weightp / no-weightb / no-analyze-src-pics / deblock=0:0 / sao / no-sao-non-deblock / rd=4 / selective-sao=4 / no-early-skip / rskip / no-fast-intra / no-tskip-fast / no-cu-lossless / no-b-intra / no-splitrd-skip / rdpenalty=0 / psy-rd=1.30 / psy-rdoq=2.00 / no-rd-refine / no-lossless / cbqpoffs=0 / crqpoffs=0 / rc=crf / crf=19.0 / qcomp=0.60 / qpstep=4 / stats-write=0 / stats-read=0 / ipratio=1.40 / pbratio=1.30 / aq-mode=4 / aq-strength=1.10 / cutree / zone-count=0 / no-strict-cbr / qg-size=32 / no-rc-grain / qpmax=69 / qpmin=0 / no-const-vbv / sar=1 / overscan=0 / videoformat=5 / range=0 / colorprim=2 / transfer=2 / colormatrix=2 / chromaloc=0 / display-window=0 / cll=0,0 / min-luma=0 / max-luma=1023 / log2-max-poc-lsb=8 / vui-timing-info / vui-hrd-info / slices=1 / no-opt-qp-pps / no-opt-ref-list-length-pps / no-multi-pass-opt-rps / scenecut-bias=0.05 / hist-threshold=0.01 / no-opt-cu-delta-qp / no-aq-motion / no-hdr10 / no-hdr10-opt / no-dhdr10-opt / no-idr-recovery-sei / analysis-reuse-level=0 / analysis-save-reuse-level=0 / analysis-load-reuse-level=0 / scale-factor=0 / refine-intra=0 / refine-inter=0 / refine-mv=1 / refine-ctu-distortion=0 / no-limit-sao / ctu-info=0 / no-lowpass-dct / refine-analysis-type=0 / copy-pic=1 / max-ausize-factor=1.0 / no-dynamic-refine / no-single-sei / no-hevc-aq / no-svt / no-field / qp-adaptation-range=1.00 / no-scenecut-aware-qpconformance-window-offsets / right=0 / bottom=0
Language : English
Default : Yes
Forced : No
Color range : Limited

Audio

ID : 2
Format : E-AC-3
Format/Info : Enhanced AC-3
Commercial name : Dolby Digital Plus
Codec ID : A_EAC3
Duration : 1 h 57 min
Bit rate mode : Constant
Bit rate : 448 kb/s
Channel(s) : 6 channels
Channel layout : L R C LFE Ls Rs
Sampling rate : 48.0 kHz
Frame rate : 31.250 FPS (1536 SPF)
Bit depth : 24 bits
Compression mode : Lossy
Stream size : 376 MiB (10%)
Writing library : Lavc58.54.100 eac3
Language : English
Service kind : Complete Main
Default : Yes
Forced : No

Text #1

ID : 3
Format : PGS
Codec ID : S_HDMV/PGS
Codec ID/Info : Picture based subtitle format used on BDs/HD-DVDs
Duration : 1 h 51 min
Bit rate : 45.8 kb/s
Count of elements : 3505
Stream size : 36.4 MiB (1%)
Language : English
Default : No
Forced : No

Text #2

ID : 4
Format : PGS
Codec ID : S_HDMV/PGS
Codec ID/Info : Picture based subtitle format used on BDs/HD-DVDs
Duration : 1 h 56 min
Bit rate : 36.0 kb/s
Count of elements : 3033
Stream size : 30.0 MiB (1%)
Language : Spanish
Default : No
Forced : No

Text #3

ID : 5
Format : PGS
Codec ID : S_HDMV/PGS
Codec ID/Info : Picture based subtitle format used on BDs/HD-DVDs
Duration : 1 h 52 min
Bit rate : 798 b/s
Count of elements : 78
Stream size : 659 KiB (0%)
Title : French Subtitles for Foriegn Parts
Language : French
Default : No
Forced : No

Text #4

ID : 6
Format : PGS
Codec ID : S_HDMV/PGS
Codec ID/Info : Picture based subtitle format used on BDs/HD-DVDs
Duration : 1 h 56 min
Bit rate : 32.2 kb/s
Count of elements : 3126
Stream size : 26.8 MiB (1%)
Language : Spanish
Default : No
Forced : No

Text #5

ID : 7
Format : PGS
Codec ID : S_HDMV/PGS
Codec ID/Info : Picture based subtitle format used on BDs/HD-DVDs
Duration : 1 h 56 min
Bit rate : 38.8 kb/s
Count of elements : 3160
Stream size : 32.3 MiB (1%)
Language : Italian
Default : No
Forced : No

Text #6

ID : 8
Format : PGS
Codec ID : S_HDMV/PGS
Codec ID/Info : Picture based subtitle format used on BDs/HD-DVDs
Duration : 1 h 56 min
Bit rate : 35.0 kb/s
Count of elements : 2974
Stream size : 29.2 MiB (1%)
Language : Portuguese
Default : No
Forced : No

Text #7

ID : 9
Format : PGS
Codec ID : S_HDMV/PGS
Codec ID/Info : Picture based subtitle format used on BDs/HD-DVDs
Duration : 1 h 50 min
Bit rate : 27.0 kb/s
Count of elements : 3126
Stream size : 21.4 MiB (1%)
Language : Chinese
Default : No
Forced : No

Text #8

ID : 10
Format : PGS
Codec ID : S_HDMV/PGS
Codec ID/Info : Picture based subtitle format used on BDs/HD-DVDs
Duration : 1 h 56 min
Bit rate : 42.3 kb/s
Count of elements : 3164
Stream size : 35.2 MiB (1%)
Language : Indonesian
Default : No
Forced : No

Text #9

ID : 11
Format : PGS
Codec ID : S_HDMV/PGS
Codec ID/Info : Picture based subtitle format used on BDs/HD-DVDs
Duration : 1 h 56 min
Bit rate : 22.3 kb/s
Count of elements : 3260
Stream size : 18.6 MiB (0%)
Language : Korean
Default : No
Forced : No

Text #10

ID : 12
Format : PGS
Codec ID : S_HDMV/PGS
Codec ID/Info : Picture based subtitle format used on BDs/HD-DVDs
Duration : 1 h 49 min
Bit rate : 47.2 kb/s
Count of elements : 3160
Stream size : 37.0 MiB (1%)
Language : Malay
Default : No
Forced : No

Text #11

ID : 13
Format : PGS
Codec ID : S_HDMV/PGS
Codec ID/Info : Picture based subtitle format used on BDs/HD-DVDs
Duration : 1 h 50 min
Bit rate : 28.0 kb/s
Count of elements : 3142
Stream size : 22.2 MiB (1%)
Language : Chinese
Default : No
Forced : No

Text #12

ID : 14
Format : PGS
Codec ID : S_HDMV/PGS
Codec ID/Info : Picture based subtitle format used on BDs/HD-DVDs
Duration : 1 h 56 min
Bit rate : 28.1 kb/s
Count of elements : 3138
Stream size : 23.4 MiB (1%)
Language : Thai
Default : No
Forced : No

Text #13

ID : 15
Format : PGS
Codec ID : S_HDMV/PGS
Codec ID/Info : Picture based subtitle format used on BDs/HD-DVDs
Duration : 1 h 49 min
Bit rate : 44.4 kb/s
Count of elements : 3258
Stream size : 34.7 MiB (1%)
Language : Vietnamese
Default : No
Forced : No

Text #14

ID : 16
Format : PGS
Codec ID : S_HDMV/PGS
Codec ID/Info : Picture based subtitle format used on BDs/HD-DVDs
Duration : 2 min 7 s
Bit rate : 29.8 kb/s
Count of elements : 58
Stream size : 463 KiB (0%)
Title : English for Foriegn Parts
Language : English
Default : Yes
Forced : Yes

Menu

00:00:00.000 : :00:00:00.000
00:04:33.899 : :00:04:33.899
00:08:51.740 : :00:08:51.740
00:14:33.915 : :00:14:33.915
00:17:01.604 : :00:17:01.604
00:19:27.041 : :00:19:27.041
00:21:52.937 : :00:21:52.937
00:26:13.572 : :00:26:13.572
00:30:47.971 : :00:30:47.971
00:32:48.675 : :00:32:48.675
00:36:12.379 : :00:36:12.379
00:39:06.970 : :00:39:06.970
00:43:03.498 : :00:43:03.498
00:45:40.655 : :00:45:40.655
00:52:10.377 : :00:52:10.377
00:57:21.188 : :00:57:21.188
01:01:23.889 : :01:01:23.889
01:02:59.901 : :01:02:59.901
01:06:05.920 : :01:06:05.920
01:10:30.476 : :01:10:30.476
01:13:26.527 : :01:13:26.527
01:18:24.867 : :01:18:24.867
01:21:56.203 : :01:21:56.203
01:26:04.993 : :01:26:04.993
01:28:06.907 : :01:28:06.907
01:32:02.976 : :01:32:02.976
01:35:52.956 : :01:35:52.956
01:38:30.655 : :01:38:30.655
01:41:30.751 : :01:41:30.751
01:43:44.635 : :01:43:44.635
01:46:41.562 : :01:46:41.562
01:50:12.689 : :01:50:12.689