General

Unique ID : 237863444622462734745727024678254231414 (0xB2F2D543E6DDE6CEA4B90ADF790D3F76)
Complete name : /home/30nama/movies/r/Revolution_1985_DIRECTORS_CUT_10bit_1080p_x265_BluRay_5.1CH_d3g_30NAMA.mkv
Format : Matroska
Format version : Version 2
File size : 2.75 GiB
Duration : 2 h 6 min
Overall bit rate : 3 111 kb/s
Movie name : Revolution 1985 DirCut BluRay 10Bit 1080p DD5.1 H265-d3g
Encoded date : UTC 2018-03-01 14:15:14
Writing application : DVDFab 10.0.8.1
Writing library : libebml v1.3.4 + libmatroska v1.4.5

Video

ID : 1
Format : HEVC
Format/Info : High Efficiency Video Coding
Format profile : Main 10@L4@Main
Codec ID : V_MPEGH/ISO/HEVC
Duration : 2 h 6 min
Bit rate : 2 648 kb/s
Width : 1 912 pixels
Height : 796 pixels
Display aspect ratio : 2.40:1
Frame rate mode : Constant
Frame rate : 23.976 (24000/1001) FPS
Color space : YUV
Chroma subsampling : 4:2:0
Bit depth : 10 bits
Bits/(Pixel*Frame) : 0.073
Stream size : 2.34 GiB (85%)
Default : Yes
Forced : No
Color range : Limited
Color primaries : BT.709
Transfer characteristics : BT.709
Matrix coefficients : BT.709

Audio

ID : 2
Format : AC-3
Format/Info : Audio Coding 3
Commercial name : Dolby Digital
Codec ID : A_AC3
Duration : 2 h 6 min
Bit rate mode : Constant
Bit rate : 448 kb/s
Channel(s) : 6 channels
Channel layout : L R C LFE Ls Rs
Sampling rate : 48.0 kHz
Frame rate : 31.250 FPS (1536 SPF)
Bit depth : 16 bits
Compression mode : Lossy
Stream size : 406 MiB (14%)
Language : English
Service kind : Complete Main
Default : Yes
Forced : No

Text #1

ID : 3
Format : VobSub
Codec ID : S_VOBSUB
Codec ID/Info : Picture based subtitle format used on DVDs
Duration : 2 h 3 min
Bit rate : 5 958 b/s
Count of elements : 1229
Stream size : 5.28 MiB (0%)
Language : English
Default : No
Forced : No

Text #2

ID : 4
Format : VobSub
Codec ID : S_VOBSUB
Codec ID/Info : Picture based subtitle format used on DVDs
Duration : 2 h 3 min
Bit rate : 6 502 b/s
Count of elements : 1422
Stream size : 5.76 MiB (0%)
Language : English
Default : No
Forced : No

Menu

00:00:00.000 : en:(01)00:00:00:000
00:09:55.219 : en:(02)00:09:55:219
00:31:03.444 : en:(03)00:31:03:444
00:36:16.215 : en:(04)00:36:16:215
00:46:31.538 : en:(05)00:46:31:538
00:58:14.991 : en:(06)00:58:14:991
01:08:24.475 : en:(07)01:08:24:475
01:18:48.515 : en:(08)01:18:48:515
01:28:37.645 : en:(09)01:28:37:645
01:35:13.541 : en:(10)01:35:13:541
01:40:19.096 : en:(11)01:40:19:096
01:54:12.678 : en:(12)01:54:12:678
02:06:32.668 : en:(13)02:06:32:668