General

Unique ID : 214963140882361067404019059764405361141 (0xA1B8651E7D6236B6B627DC16FD9259F5)
Complete name : /home/30nama/movies/l/Love_Unto_Death_1984_720p_BluRay_USURY_30NAMA.mkv
Format : Matroska
Format version : Version 4
File size : 3.28 GiB
Duration : 1 h 34 min
Overall bit rate : 4 980 kb/s
Encoded date : UTC 2015-09-10 23:14:36
Writing application : mkvmerge v8.3.0 ('Over the Horizon') 64bit
Writing library : libebml v1.3.1 + libmatroska v1.4.2

Video

ID : 1
Format : AVC
Format/Info : Advanced Video Codec
Format profile : High@L4.1
Format settings : CABAC / 5 Ref Frames
Format settings, CABAC : Yes
Format settings, ReFrames : 5 frames
Codec ID : V_MPEG4/ISO/AVC
Duration : 1 h 34 min
Bit rate : 4 339 kb/s
Width : 1 280 pixels
Height : 544 pixels
Display aspect ratio : 2.35:1
Frame rate mode : Constant
Frame rate : 23.976 FPS
Color space : YUV
Chroma subsampling : 4:2:0
Bit depth : 8 bits
Scan type : Progressive
Bits/(Pixel*Frame) : 0.260
Stream size : 2.85 GiB (87%)
Writing library : x264 core 148 r2597 e86f3a1
Encoding settings : cabac=1 / ref=5 / deblock=1:0:0 / analyse=0x3:0x133 / me=umh / subme=7 / psy=1 / psy_rd=1.00:0.00 / mixed_ref=1 / me_range=16 / chroma_me=1 / trellis=1 / 8x8dct=1 / cqm=0 / deadzone=21,11 / fast_pskip=0 / chroma_qp_offset=-2 / threads=12 / lookahead_threads=2 / sliced_threads=0 / nr=0 / decimate=1 / interlaced=0 / bluray_compat=0 / constrained_intra=0 / bframes=3 / b_pyramid=2 / b_adapt=2 / b_bias=0 / direct=3 / weightb=1 / open_gop=0 / weightp=2 / keyint=250 / keyint_min=23 / scenecut=40 / intra_refresh=0 / rc_lookahead=50 / rc=2pass / mbtree=1 / bitrate=4339 / ratetol=1.0 / qcomp=0.60 / qpmin=0 / qpmax=69 / qpstep=4 / cplxblur=20.0 / qblur=0.5 / ip_ratio=1.40 / aq=1:1.00
Language : English
Default : Yes
Forced : No

Audio

ID : 2
Format : AC-3
Format/Info : Audio Coding 3
Commercial name : Dolby Digital
Codec ID : A_AC3
Duration : 1 h 34 min
Bit rate mode : Constant
Bit rate : 640 kb/s
Channel(s) : 2 channels
Channel layout : L R
Sampling rate : 48.0 kHz
Frame rate : 31.250 FPS (1536 SPF)
Bit depth : 16 bits
Compression mode : Lossy
Stream size : 431 MiB (13%)
Language : French
Service kind : Complete Main
Default : Yes
Forced : No

Text

ID : 3
Format : UTF-8
Codec ID : S_TEXT/UTF8
Codec ID/Info : UTF-8 Plain Text
Duration : 1 h 31 min
Bit rate : 31 b/s
Count of elements : 719
Stream size : 21.1 KiB (0%)
Language : English
Default : Yes
Forced : Yes

Menu

00:00:00.000 : en:00:00:00.000
00:09:31.112 : en:00:09:31.112
00:19:33.255 : en:00:19:33.255
00:29:53.500 : en:00:29:53.500
00:39:55.393 : en:00:39:55.393
00:49:33.220 : en:00:49:33.220
00:59:32.068 : en:00:59:32.068
01:09:11.939 : en:01:09:11.939
01:19:42.361 : en:01:19:42.361
01:29:43.086 : en:01:29:43.086