General

Unique ID : 240354996388547957372677797517051703522 (0xB4D2B040684BDA9D9AF5014445F230E2)
Complete name : /movies/h/How_to_Train_Your_Dragon_2_2014_1080p_BluRay_AdiT_30NAMA.mkv
Format : Matroska
Format version : Version 4
File size : 4.06 GiB
Duration : 1 h 41 min
Overall bit rate : 5 708 kb/s
Movie name : How to Train Your Dragon 2 (2014) 1080p Bluray AC3 x264 - AdiT
Encoded date : UTC 2014-10-18 19:40:15
Writing application : mkvmerge v7.2.0 ('On Every Street') 64bit built on Sep 13 2014 15:52:10
Writing library : libebml v1.3.0 + libmatroska v1.4.1

Video

ID : 1
Format : AVC
Format/Info : Advanced Video Codec
Format profile : High@L4.1
Format settings : CABAC / 5 Ref Frames
Format settings, CABAC : Yes
Format settings, ReFrames : 5 frames
Codec ID : V_MPEG4/ISO/AVC
Duration : 1 h 41 min
Bit rate : 5 066 kb/s
Width : 1 920 pixels
Height : 816 pixels
Display aspect ratio : 2.35:1
Frame rate mode : Constant
Frame rate : 23.976 (24000/1001) FPS
Color space : YUV
Chroma subsampling : 4:2:0
Bit depth : 8 bits
Scan type : Progressive
Bits/(Pixel*Frame) : 0.135
Stream size : 3.61 GiB (89%)
Writing library : x264 core 142 r2431 ac76440
Encoding settings : cabac=1 / ref=5 / deblock=1:0:0 / analyse=0x3:0x133 / me=umh / subme=9 / psy=1 / psy_rd=0.40:0.00 / mixed_ref=1 / me_range=64 / chroma_me=1 / trellis=2 / 8x8dct=1 / cqm=0 / deadzone=21,11 / fast_pskip=0 / chroma_qp_offset=-2 / threads=12 / lookahead_threads=1 / sliced_threads=0 / nr=0 / decimate=1 / interlaced=0 / bluray_compat=0 / constrained_intra=0 / bframes=6 / b_pyramid=2 / b_adapt=2 / b_bias=0 / direct=1 / weightb=1 / open_gop=0 / weightp=2 / keyint=240 / keyint_min=23 / scenecut=40 / intra_refresh=0 / rc_lookahead=200 / rc=crf / mbtree=1 / crf=21.8 / qcomp=0.60 / qpmin=10 / qpmax=51 / qpstep=4 / vbv_maxrate=50000 / vbv_bufsize=62500 / crf_max=0.0 / nal_hrd=none / filler=0 / ip_ratio=1.40 / aq=1:0.60
Language : English
Default : Yes
Forced : No
Color range : Limited
Color primaries : BT.709
Transfer characteristics : BT.709
Matrix coefficients : BT.709

Audio

ID : 2
Format : AC-3
Format/Info : Audio Coding 3
Commercial name : Dolby Digital
Codec ID : A_AC3
Duration : 1 h 41 min
Bit rate mode : Constant
Bit rate : 640 kb/s
Channel(s) : 6 channels
Channel layout : L R C LFE Ls Rs
Sampling rate : 48.0 kHz
Frame rate : 31.250 FPS (1536 SPF)
Bit depth : 16 bits
Compression mode : Lossy
Stream size : 467 MiB (11%)
Language : English
Service kind : Complete Main
Default : Yes
Forced : No

Text

ID : 3
Format : UTF-8
Codec ID : S_TEXT/UTF8
Codec ID/Info : UTF-8 Plain Text
Duration : 1 h 32 min
Bit rate : 47 b/s
Count of elements : 1224
Stream size : 32.3 KiB (0%)
Language : English
Default : Yes
Forced : No

Menu

00:00:00.000 : en:00:00:00.000
00:03:27.999 : en:00:03:27.999
00:05:20.695 : en:00:05:20.695
00:07:46.007 : en:00:07:46.007
00:10:16.032 : en:00:10:16.032
00:13:16.337 : en:00:13:16.337
00:16:59.060 : en:00:16:59.060
00:20:01.700 : en:00:20:01.700
00:23:43.255 : en:00:23:43.255
00:27:14.466 : en:00:27:14.466
00:29:21.468 : en:00:29:21.468
00:33:41.937 : en:00:33:41.937
00:37:05.473 : en:00:37:05.473
00:39:06.970 : en:00:39:06.970
00:40:59.165 : en:00:40:59.165
00:45:03.993 : en:00:45:03.993
00:47:16.625 : en:00:47:16.625
00:51:51.525 : en:00:51:51.525
00:54:35.731 : en:00:54:35.731
00:56:15.998 : en:00:56:15.998
01:00:33.171 : en:01:00:33.171
01:04:28.782 : en:01:04:28.782
01:06:34.949 : en:01:06:34.949
01:09:44.138 : en:01:09:44.138
01:14:01.854 : en:01:14:01.854
01:18:35.127 : en:01:18:35.127
01:21:07.154 : en:01:21:07.154
01:22:55.053 : en:01:22:55.053
01:24:30.065 : en:01:24:30.065
01:28:04.654 : en:01:28:04.654
01:31:03.500 : en:01:31:03.500
01:32:21.995 : en:01:32:21.995