General

Unique ID : 174700607457962385695709811868608036008 (0x836E1CF5789F5C7882E646C866D8FCA8)
Complete name : /home/30nama/movies/a/A_Time_to_Kill_1996_10bit_1080p_x265_BluRay_Tigole_30NAMA.mkv
Format : Matroska
Format version : Version 4
File size : 6.52 GiB
Duration : 2 h 29 min
Overall bit rate : 6 245 kb/s
Movie name : A Time To Kill
Encoded date : UTC 2019-08-20 19:06:07
Writing application : mkvmerge v32.0.0 ('Astral Progressions') 64-bit
Writing library : libebml v1.3.7 + libmatroska v1.5.0

Video

ID : 1
Format : HEVC
Format/Info : High Efficiency Video Coding
Format profile : Main 10@L4@Main
Codec ID : V_MPEGH/ISO/HEVC
Duration : 2 h 29 min
Bit rate : 5 750 kb/s
Width : 1 908 pixels
Height : 800 pixels
Display aspect ratio : 2.40:1
Frame rate mode : Constant
Frame rate : 23.976 (24000/1001) FPS
Color space : YUV
Chroma subsampling : 4:2:0
Bit depth : 10 bits
Bits/(Pixel*Frame) : 0.157
Stream size : 6.00 GiB (92%)
Writing library : x265 3.0_Au+18-768ab38fd5fd:[Windows][GCC 8.3.0][64 bit] 10bit
Encoding settings : cpuid=1111039 / frame-threads=3 / numa-pools=8 / wpp / no-pmode / no-pme / no-psnr / no-ssim / log-level=2 / input-csp=1 / input-res=1908x800 / interlace=0 / total-frames=215061 / level-idc=0 / high-tier=1 / uhd-bd=0 / ref=4 / no-allow-non-conformance / no-repeat-headers / annexb / no-aud / no-hrd / info / hash=0 / no-temporal-layers / open-gop / min-keyint=23 / keyint=250 / gop-lookahead=0 / bframes=4 / b-adapt=2 / b-pyramid / bframe-bias=0 / rc-lookahead=25 / lookahead-slices=4 / scenecut=40 / radl=0 / no-splice / no-intra-refresh / ctu=64 / min-cu-size=8 / rect / no-amp / max-tu-size=32 / tu-inter-depth=1 / tu-intra-depth=1 / limit-tu=0 / rdoq-level=2 / dynamic-rd=0.00 / no-ssim-rd / signhide / no-tskip / nr-intra=0 / nr-inter=0 / no-constrained-intra / strong-intra-smoothing / max-merge=3 / limit-refs=3 / limit-modes / me=3 / subme=3 / merange=57 / temporal-mvp / weightp / no-weightb / no-analyze-src-pics / deblock=0:0 / no-sao / no-sao-non-deblock / rd=4 / no-early-skip / rskip / no-fast-intra / no-tskip-fast / no-cu-lossless / no-b-intra / no-splitrd-skip / rdpenalty=0 / psy-rd=2.00 / psy-rdoq=1.00 / no-rd-refine / no-lossless / cbqpoffs=0 / crqpoffs=0 / rc=abr / bitrate=5750 / qcomp=0.60 / qpstep=4 / stats-write=0 / stats-read=2 / cplxblur=20.0 / qblur=0.5 / ipratio=1.40 / pbratio=1.30 / aq-mode=3 / aq-strength=1.00 / cutree / zone-count=0 / no-strict-cbr / qg-size=32 / no-rc-grain / qpmax=69 / qpmin=0 / no-const-vbv / sar=0 / overscan=0 / videoformat=5 / range=0 / colorprim=2 / transfer=2 / colormatrix=2 / chromaloc=0 / display-window=0 / max-cll=0,0 / min-luma=0 / max-luma=1023 / log2-max-poc-lsb=8 / vui-timing-info / vui-hrd-info / slices=1 / no-opt-qp-pps / no-opt-ref-list-length-pps / multi-pass-opt-rps / scenecut-bias=0.05 / no-opt-cu-delta-qp / aq-motion / no-hdr / no-hdr-opt / no-dhdr10-opt / no-idr-recovery-sei / analysis-reuse-level=5 / scale-factor=0 / refine-intra=0 / refine-inter=0 / refine-mv=0 / refine-ctu-distortion=0 / no-limit-sao / ctu-info=0 / no-lowpass-dct / refine-analysis-type=0 / copy-pic=1 / max-ausize-factor=1.0 / no-dynamic-refine / no-single-sei / no-hevc-aq / no-svt / qp-adaptation-range=1.00
Default : Yes
Forced : No

Audio

ID : 2
Format : AAC LC
Format/Info : Advanced Audio Codec Low Complexity
Codec ID : A_AAC-2
Duration : 2 h 29 min
Bit rate : 429 kb/s
Channel(s) : 6 channels
Channel layout : C L R Ls Rs LFE
Sampling rate : 48.0 kHz
Frame rate : 46.875 FPS (1024 SPF)
Compression mode : Lossy
Delay relative to video : 20 ms
Stream size : 459 MiB (7%)
Language : English
Default : Yes
Forced : No

Text #1

ID : 3
Format : VobSub
Muxing mode : zlib
Codec ID : S_VOBSUB
Codec ID/Info : Picture based subtitle format used on DVDs
Duration : 2 h 28 min
Bit rate : 12.3 kb/s
Count of elements : 2090
Stream size : 13.1 MiB (0%)
Language : English
Default : No
Forced : No

Text #2

ID : 4
Format : VobSub
Muxing mode : zlib
Codec ID : S_VOBSUB
Codec ID/Info : Picture based subtitle format used on DVDs
Duration : 2 h 28 min
Bit rate : 9 013 b/s
Count of elements : 1980
Stream size : 9.55 MiB (0%)
Language : Danish
Default : No
Forced : No

Text #3

ID : 5
Format : VobSub
Muxing mode : zlib
Codec ID : S_VOBSUB
Codec ID/Info : Picture based subtitle format used on DVDs
Duration : 2 h 28 min
Bit rate : 9 332 b/s
Count of elements : 1958
Stream size : 9.89 MiB (0%)
Language : Dutch
Default : No
Forced : No

Text #4

ID : 6
Format : VobSub
Muxing mode : zlib
Codec ID : S_VOBSUB
Codec ID/Info : Picture based subtitle format used on DVDs
Duration : 2 h 28 min
Bit rate : 8 931 b/s
Count of elements : 2014
Stream size : 9.49 MiB (0%)
Language : Finnish
Default : No
Forced : No

Text #5

ID : 7
Format : VobSub
Muxing mode : zlib
Codec ID : S_VOBSUB
Codec ID/Info : Picture based subtitle format used on DVDs
Duration : 2 h 28 min
Bit rate : 7 843 b/s
Count of elements : 1706
Stream size : 8.33 MiB (0%)
Language : French
Default : No
Forced : No

Text #6

ID : 8
Format : VobSub
Muxing mode : zlib
Codec ID : S_VOBSUB
Codec ID/Info : Picture based subtitle format used on DVDs
Duration : 2 h 28 min
Bit rate : 11.0 kb/s
Count of elements : 1987
Stream size : 11.7 MiB (0%)
Language : German
Default : No
Forced : No

Text #7

ID : 9
Format : VobSub
Muxing mode : zlib
Codec ID : S_VOBSUB
Codec ID/Info : Picture based subtitle format used on DVDs
Duration : 2 h 28 min
Bit rate : 9 104 b/s
Count of elements : 1949
Stream size : 9.67 MiB (0%)
Language : Italian
Default : No
Forced : No

Text #8

ID : 10
Format : VobSub
Muxing mode : zlib
Codec ID : S_VOBSUB
Codec ID/Info : Picture based subtitle format used on DVDs
Duration : 2 h 28 min
Bit rate : 8 507 b/s
Count of elements : 1955
Stream size : 9.04 MiB (0%)
Language : Norwegian Bokmal
Default : No
Forced : No

Text #9

ID : 11
Format : VobSub
Muxing mode : zlib
Codec ID : S_VOBSUB
Codec ID/Info : Picture based subtitle format used on DVDs
Duration : 2 h 28 min
Bit rate : 10.7 kb/s
Count of elements : 1993
Stream size : 11.4 MiB (0%)
Language : Portuguese
Default : No
Forced : No

Text #10

ID : 12
Format : VobSub
Muxing mode : zlib
Codec ID : S_VOBSUB
Codec ID/Info : Picture based subtitle format used on DVDs
Duration : 2 h 28 min
Bit rate : 9 895 b/s
Count of elements : 1965
Stream size : 10.5 MiB (0%)
Language : Spanish
Default : No
Forced : No

Text #11

ID : 13
Format : VobSub
Muxing mode : zlib
Codec ID : S_VOBSUB
Codec ID/Info : Picture based subtitle format used on DVDs
Duration : 2 h 28 min
Bit rate : 8 191 b/s
Count of elements : 1953
Stream size : 8.68 MiB (0%)
Language : Swedish
Default : No
Forced : No

Menu

00:00:00.000 : en:Chapter 01
00:03:35.089 : en:Chapter 02
00:09:15.471 : en:Chapter 03
00:15:17.291 : en:Chapter 04
00:19:47.144 : en:Chapter 05
00:25:29.819 : en:Chapter 06
00:27:13.882 : en:Chapter 07
00:29:12.250 : en:Chapter 08
00:31:45.737 : en:Chapter 09
00:36:45.119 : en:Chapter 10
00:37:39.507 : en:Chapter 11
00:40:30.261 : en:Chapter 12
00:42:48.232 : en:Chapter 13
00:45:32.479 : en:Chapter 14
00:48:48.342 : en:Chapter 15
00:50:46.960 : en:Chapter 16
00:52:55.505 : en:Chapter 17
01:00:27.999 : en:Chapter 18
01:01:03.034 : en:Chapter 19
01:03:51.702 : en:Chapter 20
01:05:54.867 : en:Chapter 21
01:07:12.778 : en:Chapter 22
01:11:22.903 : en:Chapter 23
01:15:55.592 : en:Chapter 24
01:18:18.735 : en:Chapter 25
01:23:24.082 : en:Chapter 26
01:25:45.765 : en:Chapter 27
01:27:39.087 : en:Chapter 28
01:31:15.470 : en:Chapter 29
01:35:33.519 : en:Chapter 30
01:37:12.535 : en:Chapter 31
01:38:43.626 : en:Chapter 32
01:39:51.276 : en:Chapter 33
01:44:13.497 : en:Chapter 34
01:49:01.159 : en:Chapter 35
01:54:42.458 : en:Chapter 36
01:58:42.281 : en:Chapter 37
02:00:17.210 : en:Chapter 38
02:02:38.267 : en:Chapter 39
02:06:20.364 : en:Chapter 40
02:08:31.412 : en:Chapter 41
02:11:44.855 : en:Chapter 42
02:13:19.157 : en:Chapter 43
02:21:05.331 : en:Chapter 44
02:23:01.197 : en:Chapter 45
02:25:16.249 : en:Chapter 46