General

Unique ID : 202191985417441946549102669602143404200 (0x981CC28A514077E8AB4E77E2B2B100A8)
Complete name : /home/30nama/movies/a/A_Bigger_Splash_2015_10bit_1080p_x265_BrRip_30nama_30NAMA.mkv
Format : Matroska
Format version : Version 4
File size : 1.76 GiB
Duration : 2 h 4 min
Overall bit rate : 2 024 kb/s
Encoded date : UTC 2016-07-05 10:18:39
Writing application : mkvmerge v9.2.0 ('Photograph') 64bit
Writing library : libebml v1.3.3 + libmatroska v1.4.4

Video

ID : 1
Format : HEVC
Format/Info : High Efficiency Video Coding
Format profile : Main 10@L5.1@Main
Codec ID : V_MPEGH/ISO/HEVC
Duration : 2 h 4 min
Bit rate : 1 637 kb/s
Width : 1 920 pixels
Height : 1 040 pixels
Display aspect ratio : 1.85:1
Frame rate mode : Constant
Frame rate : 24.000 FPS
Color space : YUV
Chroma subsampling : 4:2:0
Bit depth : 10 bits
Bits/(Pixel*Frame) : 0.034
Stream size : 1.42 GiB (81%)
Writing library : x265 1.9+200-6098ba3e0cf16b11:[Windows][GCC 5.3.0][64 bit] 10bit
Encoding settings : wpp / ctu=64 / min-cu-size=8 / max-tu-size=32 / tu-intra-depth=1 / tu-inter-depth=1 / me=1 / subme=2 / merange=57 / no-rect / no-amp / max-merge=2 / temporal-mvp / early-skip / recursion-skip / rdpenalty=0 / no-tskip / no-tskip-fast / strong-intra-smoothing / no-lossless / no-cu-lossless / no-constrained-intra / fast-intra / open-gop / no-temporal-layers / interlace=0 / keyint=250 / min-keyint=24 / scenecut=40 / rc-lookahead=15 / lookahead-slices=6 / bframes=4 / bframe-bias=0 / b-adapt=0 / ref=2 / limit-refs=3 / no-limit-modes / weightp / no-weightb / aq-mode=1 / qg-size=32 / aq-strength=1.00 / cbqpoffs=0 / crqpoffs=0 / rd=2 / psy-rd=2.00 / rdoq-level=0 / psy-rdoq=0.00 / no-rd-refine / signhide / deblock=0:0 / sao / no-sao-non-deblock / b-pyramid / cutree / no-intra-refresh / rc=2 / pass / bitrate=1635 / qcomp=0.60 / qpmin=0 / qpmax=51 / qpstep=4 / cplxblur=20.0 / qblur=0.5 / ipratio=1.40 / pbratio=1.30
Default : Yes
Forced : No

Audio

ID : 2
Format : AAC LC
Format/Info : Advanced Audio Codec Low Complexity
Codec ID : A_AAC-2
Duration : 2 h 4 min
Bit rate : 384 kb/s
Channel(s) : 6 channels
Channel layout : C L R Ls Rs LFE
Sampling rate : 48.0 kHz
Frame rate : 46.875 FPS (1024 SPF)
Compression mode : Lossy
Delay relative to video : 9 ms
Stream size : 342 MiB (19%)
Language : English
Default : Yes
Forced : No

Text #1

ID : 3
Format : UTF-8
Codec ID : S_TEXT/UTF8
Codec ID/Info : UTF-8 Plain Text
Duration : 1 h 50 min
Bit rate : 4 b/s
Count of elements : 142
Stream size : 3.98 KiB (0%)
Language : English
Default : No
Forced : No

Text #2

ID : 4
Format : UTF-8
Codec ID : S_TEXT/UTF8
Codec ID/Info : UTF-8 Plain Text
Duration : 1 h 58 min
Bit rate : 46 b/s
Count of elements : 1205
Stream size : 40.9 KiB (0%)
Language : English
Default : No
Forced : No

Text #3

ID : 5
Format : UTF-8
Codec ID : S_TEXT/UTF8
Codec ID/Info : UTF-8 Plain Text
Duration : 1 h 59 min
Bit rate : 53 b/s
Count of elements : 1423
Stream size : 47.2 KiB (0%)
Language : English
Default : No
Forced : No

Text #4

ID : 6
Format : UTF-8
Codec ID : S_TEXT/UTF8
Codec ID/Info : UTF-8 Plain Text
Duration : 10 s 0 ms
Bit rate : 8 b/s
Count of elements : 1
Stream size : 10.0 Bytes (0%)
Default : Yes
Forced : Yes

Menu

00:00:00.000 : en:00:00:00.000
00:10:12.333 : en:00:10:12.333
00:19:03.250 : en:00:19:03.250
00:29:16.667 : en:00:29:16.667
00:39:19.875 : en:00:39:19.875
00:49:19.208 : en:00:49:19.208
01:01:37.750 : en:01:01:37.750
01:11:13.708 : en:01:11:13.708
01:21:06.167 : en:01:21:06.167
01:30:41.125 : en:01:30:41.125
01:40:09.708 : en:01:40:09.708
02:00:17.417 : en:02:00:17.417