General

Unique ID : 204342668630564770862818314219054235852 (0x99BAF768D1A6EB83A9055B4C395900CC)
Complete name : /home/30nama/movies/1/25th_Hour_2002_1080p_BrRip_30nama_30NAMA.mkv
Format : Matroska
Format version : Version 4
File size : 2.17 GiB
Duration : 2 h 14 min
Overall bit rate : 2 310 kb/s
Movie name : 25th.Hour.2002.1080p.BluRay.DTS.5.1.x264-GrapeHD
Encoded date : UTC 2020-12-21 03:23:33
Writing application : mkvmerge v9.6.0 ('Slave To Your Mind') 64bit
Writing library : libebml v1.3.4 + libmatroska v1.4.5

Video

ID : 1
Format : AVC
Format/Info : Advanced Video Codec
Format profile : High@L4.1
Format settings : CABAC / 5 Ref Frames
Format settings, CABAC : Yes
Format settings, ReFrames : 5 frames
Codec ID : V_MPEG4/ISO/AVC
Duration : 2 h 14 min
Bit rate : 2 100 kb/s
Width : 1 920 pixels
Height : 800 pixels
Display aspect ratio : 2.40:1
Frame rate mode : Constant
Frame rate : 23.976 (24000/1001) FPS
Color space : YUV
Chroma subsampling : 4:2:0
Bit depth : 8 bits
Scan type : Progressive
Bits/(Pixel*Frame) : 0.057
Stream size : 1.98 GiB (91%)
Writing library : x264 core 148 r2721 72d53ab
Encoding settings : cabac=1 / ref=5 / deblock=1:-1:-1 / analyse=0x3:0x113 / me=hex / subme=8 / psy=1 / psy_rd=1.00:0.00 / mixed_ref=1 / me_range=16 / chroma_me=1 / trellis=2 / 8x8dct=1 / cqm=0 / deadzone=21,11 / fast_pskip=1 / chroma_qp_offset=-2 / threads=48 / lookahead_threads=6 / sliced_threads=0 / nr=0 / decimate=1 / interlaced=0 / bluray_compat=0 / constrained_intra=0 / bframes=3 / b_pyramid=2 / b_adapt=1 / b_bias=0 / direct=3 / weightb=1 / open_gop=0 / weightp=2 / keyint=250 / keyint_min=23 / scenecut=40 / intra_refresh=0 / rc_lookahead=50 / rc=2pass / mbtree=1 / bitrate=2100 / ratetol=1.0 / qcomp=0.60 / qpmin=0 / qpmax=69 / qpstep=4 / cplxblur=20.0 / qblur=0.5 / vbv_maxrate=78125 / vbv_bufsize=62500 / nal_hrd=none / filler=0 / ip_ratio=1.40 / aq=1:1.00
Default : Yes
Forced : No

Audio

ID : 2
Format : AAC LC SBR
Format/Info : Advanced Audio Codec Low Complexity with Spectral Band Replication
Commercial name : HE-AAC
Format settings : Explicit
Codec ID : A_AAC-2
Duration : 2 h 14 min
Bit rate : 208 kb/s
Channel(s) : 6 channels
Channel layout : C L R Ls Rs LFE
Sampling rate : 48.0 kHz
Frame rate : 23.438 FPS (2048 SPF)
Compression mode : Lossy
Delay relative to video : 31 ms
Stream size : 200 MiB (9%)
Language : English
Default : Yes
Forced : No

Text #1

ID : 3
Format : UTF-8
Codec ID : S_TEXT/UTF8
Codec ID/Info : UTF-8 Plain Text
Duration : 2 h 8 min
Bit rate : 78 b/s
Count of elements : 2035
Stream size : 73.9 KiB (0%)
Language : English
Default : No
Forced : No

Text #2

ID : 4
Format : UTF-8
Codec ID : S_TEXT/UTF8
Codec ID/Info : UTF-8 Plain Text
Duration : 2 h 7 min
Bit rate : 77 b/s
Count of elements : 1974
Stream size : 72.1 KiB (0%)
Language : English
Default : No
Forced : No

Text #3

ID : 5
Format : UTF-8
Codec ID : S_TEXT/UTF8
Codec ID/Info : UTF-8 Plain Text
Duration : 2 h 14 min
Bit rate : 150 b/s
Count of elements : 3115
Stream size : 149 KiB (0%)
Language : English
Default : No
Forced : No

Text #4

ID : 6
Format : UTF-8
Codec ID : S_TEXT/UTF8
Codec ID/Info : UTF-8 Plain Text
Duration : 2 h 13 min
Bit rate : 101 b/s
Count of elements : 2163
Stream size : 99.7 KiB (0%)
Language : English
Default : No
Forced : No

Text #5

ID : 7
Format : UTF-8
Codec ID : S_TEXT/UTF8
Codec ID/Info : UTF-8 Plain Text
Duration : 2 h 11 min
Bit rate : 145 b/s
Count of elements : 2470
Stream size : 140 KiB (0%)
Language : English
Default : No
Forced : No

Menu #1

00:00:00.000 : en:A Good Dog
00:07:47.338 : en:Touched
00:09:39.995 : en:English Class
00:18:38.280 : en:Frank
00:22:41.651 : en:Uncomfortable Sofa
00:34:28.608 : en:Reflection
00:44:25.079 : en:Three Choices
00:50:34.114 : en:Interrogation
00:55:01.755 : en:62nd Percentile
00:58:47.231 : en:Naturelle
01:08:24.725 : en:Last Night Out
01:16:28.082 : en:Greed and Regret
01:24:41.493 : en:Jake the Snake
01:31:02.122 : en:"Paid in Full"
01:36:41.086 : en:Nikolai's Advice
01:43:46.720 : en:"One Last Thing"
01:52:22.234 : en:Time to Go
01:56:19.136 : en:"Left Turn to Where?"
02:04:43.309 : en:Don't Look Back
02:08:42.069 : en:End Credits

Menu #2

00:00:00.054 : en:00:00:00.054 / en:00:00:00.054 / en:00:00:00.054