General

Unique ID : 246519578469019712569153129941589831646 (0xB975F19D365DE5EEBB81254392342FDE)
Complete name : /movies/1/1900_1976_1080p_BluRay_Full_HD_DTS_HDS_30NAMA.mkv
Format : Matroska
Format version : Version 4
File size : 53.3 GiB
Duration : 5 h 16 min
Overall bit rate : 24.1 Mb/s
Encoded date : UTC 2016-07-17 01:56:49
Writing application : mkvmerge v8.2.0 ('World of Adventure') 64bit
Writing library : libebml v1.3.1 + libmatroska v1.4.2

Video

ID : 1
Format : AVC
Format/Info : Advanced Video Codec
Format profile : High@L4.1
Format settings : CABAC / 4 Ref Frames
Format settings, CABAC : Yes
Format settings, ReFrames : 4 frames
Codec ID : V_MPEG4/ISO/AVC
Duration : 5 h 16 min
Bit rate : 21.8 Mb/s
Width : 1 920 pixels
Height : 1 040 pixels
Display aspect ratio : 1.85:1
Frame rate mode : Constant
Frame rate : 23.976 (24000/1001) FPS
Color space : YUV
Chroma subsampling : 4:2:0
Bit depth : 8 bits
Scan type : Progressive
Bits/(Pixel*Frame) : 0.456
Stream size : 48.3 GiB (91%)
Writing library : x264 core 148 r2692kMod 64f4e24
Encoding settings : cabac=1 / ref=4 / deblock=1:-3:-3 / analyse=0x3:0x113 / me=umh / subme=10 / psy=1 / fade_compensate=0.00 / psy_rd=1.00:0.00 / mixed_ref=1 / me_range=32 / chroma_me=1 / trellis=2 / 8x8dct=1 / cqm=0 / deadzone=21,11 / fast_pskip=0 / chroma_qp_offset=-2 / threads=42 / lookahead_threads=7 / sliced_threads=0 / nr=0 / decimate=1 / interlaced=0 / bluray_compat=0 / constrained_intra=0 / fgo=0 / bframes=8 / b_pyramid=2 / b_adapt=2 / b_bias=0 / direct=3 / weightb=1 / open_gop=0 / weightp=2 / keyint=250 / keyint_min=23 / scenecut=40 / intra_refresh=0 / rc=crf / mbtree=0 / crf=18.0000 / qcomp=0.60 / qpmin=0 / qpmax=69 / qpstep=4 / ip_ratio=1.40 / pb_ratio=1.30 / aq=3:0.80
Language : English
Default : Yes
Forced : No

Audio #1

ID : 2
Format : DTS
Format/Info : Digital Theater Systems
Codec ID : A_DTS
Duration : 5 h 16 min
Bit rate mode : Constant
Bit rate : 1 509 kb/s
Channel(s) : 2 channels
Channel layout : Lt Rt
Sampling rate : 48.0 kHz
Frame rate : 93.750 FPS (512 SPF)
Bit depth : 24 bits
Compression mode : Lossy
Stream size : 3.34 GiB (6%)
Language : English
Default : Yes
Forced : No

Audio #2

ID : 3
Format : DTS
Format/Info : Digital Theater Systems
Codec ID : A_DTS
Duration : 5 h 16 min
Bit rate mode : Constant
Bit rate : 768 kb/s
Channel(s) : 1 channel
Channel layout : C
Sampling rate : 48.0 kHz
Frame rate : 93.750 FPS (512 SPF)
Bit depth : 24 bits
Compression mode : Lossy
Stream size : 1.70 GiB (3%)
Language : Italian
Default : No
Forced : No

Text #1

ID : 4
Format : PGS
Muxing mode : zlib
Codec ID : S_HDMV/PGS
Codec ID/Info : Picture based subtitle format used on BDs/HD-DVDs
Duration : 5 h 10 min
Bit rate : 8 179 b/s
Count of elements : 6192
Stream size : 18.2 MiB (0%)
Language : English
Default : Yes
Forced : No

Text #2

ID : 5
Format : UTF-8
Codec ID : S_TEXT/UTF8
Codec ID/Info : UTF-8 Plain Text
Duration : 5 h 15 min
Bit rate : 36 b/s
Count of elements : 2967
Stream size : 84.0 KiB (0%)
Title : Traditional Chinese
Language : Chinese
Default : No
Forced : No

Menu

00:00:00.000 : en:00:00:00.000
00:10:52.442 : en:00:10:52.442
00:24:51.405 : en:00:24:51.405
00:31:45.278 : en:00:31:45.278
00:46:55.186 : en:00:46:55.186
00:57:08.382 : en:00:57:08.382
01:13:45.921 : en:01:13:45.921
01:25:59.404 : en:01:25:59.404
01:37:42.105 : en:01:37:42.105
01:53:38.310 : en:01:53:38.310
02:09:18.167 : en:02:09:18.167
02:19:34.824 : en:02:19:34.824
02:28:42.621 : en:02:28:42.621
02:42:09.301 : en:02:42:09.301
02:50:48.403 : en:02:50:48.403
03:05:30.243 : en:03:05:30.243
03:20:16.628 : en:03:20:16.628
03:29:07.367 : en:03:29:07.367
03:41:14.801 : en:03:41:14.801
03:55:40.541 : en:03:55:40.541
04:05:41.725 : en:04:05:41.725
04:18:18.606 : en:04:18:18.606
04:33:13.542 : en:04:33:13.542
04:44:58.830 : en:04:44:58.830
05:02:19.787 : en:05:02:19.787